Search results

Jump to navigation Jump to search
  • ...se hace de la siguiente forma dependiendo de la red que usemos. Se pueden dar de alta las cuentas que quieras, ya que bitlbee es multiprotocolo:
    3 KB (520 words) - 20:06, 28 August 2018
  • ...vietimas) grafinės aplinkos Gamybos Leidimas Nr. 17 (DR17). Ši aplinka yra dar labai ankstyvoje stadijoje - nėra sulaukus net alpha versijos - todėl ši Jeigu jums reikia e17 paketo, kuris dar nėra patalpintas bendruomeniniame repozite, patikrinkite, ar jo nėra [[AU
    3 KB (437 words) - 20:29, 10 October 2019
  • ...ite naudotis paieškos laukeliu puslapio viršuje; sekite nuorodą, nuorodoje dar daugiau patarimų.
    2 KB (325 words) - 09:48, 10 July 2020
  • ...i nėra sąrašę, galite ją laisvai pridėti. Jeigu ieškote bendruomenės, kuri dar nėra sukurta, galite sukurti ją arba aplankyti [https://bbs.archlinux.or
    5 KB (570 words) - 12:09, 4 August 2020
  • ...r/ DAR] || {{AUR|dar}} || {{man|1|dar|url=http://dar.linux.free.fr/doc/man/dar.html}} || Archiver to backup large live filesystems, takes care of hard lin
    11 KB (1,488 words) - 23:37, 19 September 2020
  • ...r/ DAR] || {{AUR|dar}} || {{man|1|dar|url=http://dar.linux.free.fr/doc/man/dar.html}} || Archivador para hacer copias de seguridad de grandes sistemas de
    12 KB (1,729 words) - 10:01, 2 August 2020
  • ...r/ DAR] || {{AUR|dar}} || {{man|1|dar|url=http://dar.linux.free.fr/doc/man/dar.html}} || Arquivador para fazer backup de sistemas de arquivos ''live'' gra
    12 KB (1,726 words) - 20:40, 3 August 2020
  • 3 KB (443 words) - 13:22, 11 March 2019
  • ...odžiais, taip leidžiant prioritetizuoti pastangas ir padaryti distribuciją dar geresne. Informacija siunčiama anonimiškai ir jūsų identifikuoti negali
    5 KB (644 words) - 06:52, 11 July 2020
  • ! [http://dar.linux.free.fr/ DAR] (Disk ARchive) | {{AUR|dar}}
    22 KB (1,750 words) - 10:40, 6 August 2020
  • Se você precisar dar opções adicionais do ''gpm'', você pode definir {{ic|additional_args}} e
    4 KB (593 words) - 11:27, 6 July 2020
  • ...the drawbacks of tar|[http://dar.linux.free.fr/ DAR - Disk ARchive]|{{AUR|dar}}}}
    21 KB (2,782 words) - 07:44, 12 August 2020
  • Segundo, debemos dar un gateway por defecto a cada tabla: Por ejemplo, si solo le queremos dar a una clase C acceso por la tabla PRO_3:
    7 KB (1,225 words) - 10:50, 8 October 2018
  • ...propria distribuție cu principii similare ca cele ale acelor distribuții. Dar, a și scris un program de gestionare a pachetelor numit [[pacman]], care s
    10 KB (1,455 words) - 18:14, 11 August 2020
  • ...list.orig}}, paquetes que se deben descargar. La operación posterior puede dar lugar a discrepancia entres los archivos de versiones anteriores aún prese
    5 KB (778 words) - 13:43, 4 May 2020
  • Stream #0:0(und): Video: h264 (High), yuv420p, 1920x800 [SAR 1:1 DAR 12:5], 23.98 fps, 23.98 tbr, 1k tbn, 47.95 tbc (default) Stream #0.0: Video: mpeg4, yuv420p, 720x480 [PAR 1:1 DAR 16:9], 29.97 tbr, 29.97 tbn, 29.97 tbc
    16 KB (2,328 words) - 18:08, 2 August 2020
  • Stream #0:0(und): Video: h264 (High), yuv420p, 1920x800 [SAR 1:1 DAR 12:5], 23.98 fps, 23.98 tbr, 1k tbn, 47.95 tbc (default) Stream #0.0: Video: mpeg4, yuv420p, 720x480 [PAR 1:1 DAR 16:9], 29.97 tbr, 29.97 tbn, 29.97 tbc
    17 KB (2,513 words) - 13:40, 5 July 2020
  • Para una lista completa de opciones para la configuración devilspie, dar un vistazo a la completa [http://foosel.org/linux/devilspie lista de opcion
    5 KB (807 words) - 11:03, 6 August 2020
  • ...stá diseñado para ayudar con los permiso de archivos en UNIX. ACL permite dar permisos para cualquier usuario o grupo a cualquier recurso del disco.
    6 KB (887 words) - 18:07, 11 August 2020
  • ### Descomentar esta línea para dar soporte a «xwayland» ### ...'a reemplazar su entramado de gráficos''. Una instalación incompleta puede dar lugar a un entorno gráfico roto.}}
    12 KB (1,781 words) - 09:31, 12 August 2020

View (previous 20 | next 20) (20 | 50 | 100 | 250 | 500)