Search results

Jump to navigation Jump to search
  • Alternativamente, para iniciar el par inmediatamente en un terminal ejecute: ...ttps://GNUnet.org/how-Start-and-STOP-GNUnet-peer cómo iniciar y detener un par GNUnet]{{Dead link (Español)|2020|08|02|status=404}}.
    4 KB (650 words) - 20:52, 2 August 2020
  • PAR=$(dirname $(readlink -f $0)) LD_LIBRARY_PATH=$PAR:$LD_LIBRARY_PATH
    15 KB (1,961 words) - 17:49, 2 August 2020
  • ...noget tid til overs, og du har lyst til at hjælpe os på wiki-en med at et par større eller mindre redigeringer, kan du kigge på listen over [[Priority
    3 KB (513 words) - 09:28, 10 July 2020
  • # Le da a Yakuake un par de segundos antes de enviar órdenes del servicio dbus
    4 KB (646 words) - 17:57, 29 November 2019
  • If Place & Route fails with message {{ic|ERROR - par: Switch "-msgsegset" is not allowed.}}, try deleting the {{ic|promote.xml}}
    3 KB (517 words) - 15:33, 16 February 2020
  • ...ing searched by default varies in each tool. Mostly options bring tools on par. || {{ic|pacman -Ss}} || {{ic|dnf search}} || {{ic|apt search}} || {{ic|zyp ...verbosity for the default command vary. But with options, the tools are on par with each other. || {{ic|pacman -Si}} or {{ic|pacman -Qi}} || {{ic|dnf list
    20 KB (2,999 words) - 16:05, 3 November 2020
  • # Rango de puertos par usar en la escucha. ...iente es para utilizar DHT. Si usa trackers públicos, querrá habilitar DHT par adquirir más pares. Si únicamente utiliza trackers privados, '''no habili
    10 KB (1,506 words) - 07:24, 6 August 2020
  • ...verbosity for the default command vary. But with options, the tools are on par with each other. ||pacman -[S<nowiki>|</nowiki>Q]i ||yum list or info ||apt ...ing searched by default varies in each tool. Mostly options bring tools on par. ||pacman -Ss ||yum search ||apt-cache search||rug search||zypper search
    13 KB (1,907 words) - 07:16, 14 October 2020
  • | 通过软件名、描述、简短描述来搜索包。默认搜索域依工具不同而异。Mostly options bring tools on par. ||pacman -Ss||dnf search ||apt search||zypper search<br>zypper se [-s]||em ...ing searched by default varies in each tool. Mostly options bring tools on par. ||pacman -Ss ||dnf search ||apt search||zypper search zypper se [-s]||em
    20 KB (2,669 words) - 07:16, 14 October 2020
  • Después de crear un archivo para cada equipo, debe generar un par de claves, utilizando:
    5 KB (750 words) - 10:40, 6 October 2019
  • Para acesso de escrita para o AUR, você precisar ter um [[SSH keys|par de chaves SSH]]. O conteúdo da chave pública precisa ser copiada para seu Você deve [[SSH_keys#Generating_an_SSH_key_pair|criar um novo par de chaves]] em vez de usar um existente, de forma que você possa seletivam
    12 KB (1,973 words) - 18:35, 4 March 2020
  • Sleep works. Power usage is on-par with Windows 8. The laptop runs cool and quietly.
    6 KB (853 words) - 04:02, 8 May 2020
  • ...Parcellite de nueva generación, con una estructura modular dividida en un par de bibliotecas y un demonio para la adaptabilidad. Ofrece una extensión de
    8 KB (1,248 words) - 14:59, 18 February 2020
  • Un par de llaves SSH puede ser generado ejecutando el comando {{ic|ssh-keygen}}, p También es posible agregar un comentario opcional a la llave publica con el parámetro {{ic|-C}}, para identificar la llave más fácilmente en lugares com
    25 KB (4,004 words) - 08:35, 12 August 2020
  • Stream #0.0: Video: mpeg4, yuv420p, 720x480 [PAR 1:1 DAR 16:9], 29.97 tbr, 29.97 tbn, 29.97 tbc Stream #0.0: Video: mpeg4, yuv420p, 720x480 [PAR 1:1 DAR 16:9], 29.97 tbr, 29.97 tbn, 29.97 tbc
    17 KB (2,515 words) - 17:17, 15 November 2020
  • Stream #0.0: Video: mpeg4, yuv420p, 720x480 [PAR 1:1 DAR 16:9], 29.97 tbr, 29.97 tbn, 29.97 tbc Stream #0.0: Video: mpeg4, yuv420p, 720x480 [PAR 1:1 DAR 16:9], 29.97 tbr, 29.97 tbn, 29.97 tbc
    16 KB (2,328 words) - 18:08, 2 August 2020
  • ...o variam em cada ferramenta. Principalmente as opções trazem ferramentas a par. || {{ic|pacman -Ss}} || {{ic|dnf search}} || {{ic|apt search}} || {{ic|zyp ...padrão variam em cada ferramenta. A maioria das opções tem ferramentas em par. || {{ic|pacman -Ss}} || {{ic|dnf search}} || {{ic|apt search}} || {{ic|zyp
    21 KB (3,171 words) - 07:15, 14 October 2020
  • Bps/Par/Bits: 9600 8N1
    10 KB (1,553 words) - 08:21, 21 July 2020
  • Os parâmetros do Ansible são configurados no arquivo de configuração que pode ...ação {{ic|ansible.cfg}}. Por padrão, o Ansible executa playbooks no SSH, o parâmetro {{ic|ansible_connection}} estende a conexão para:
    10 KB (1,493 words) - 13:17, 4 June 2020
  • * Få lidt erfaring, før du sender pakker ind. Byg et par pakker for at lære processen, og så kan du sende ind.
    9 KB (1,464 words) - 11:11, 20 September 2018

View (previous 20 | next 20) (20 | 50 | 100 | 250 | 500)