Search results

  • Display supports 1440x900 @ 60 Hz. HDMI output not tested.
    2 KB (222 words) - 23:04, 28 May 2021
  • Ideal refresh rate, in Hz: 60 min VSync, Hz: 50
    27 KB (1,809 words) - 13:11, 25 June 2022
  • ...} several times, for instance, to force {{ic|DVI}} to ''1024x768'' at ''85 Hz'' and {{ic|TV-out}} off: 可以使用多个 "video" 设置不同输出的分辨率,例如要强制 DVI 使用 1024x768 85 Hz ,同时禁用 TV-out :
    11 KB (818 words) - 12:19, 25 June 2022
  • The polling rate of a device is measured in Hertz (Hz) and is determined by the polling interval. The polling interval is measure ! Hz
    9 KB (1,472 words) - 12:31, 25 June 2022
  • === No window opens: Desktop is 0 x 0 @ 0 Hz ===
    8 KB (1,283 words) - 11:09, 30 July 2022
  • # 1280x1024 59.89 Hz (CVT 1.31M4) hsync: 63.67 kHz; pclk: 109.00 MHz # 1024x600 59.85 Hz (CVT) hsync: 37.35 kHz; pclk: 49.00 MHz
    16 KB (1,082 words) - 06:03, 19 June 2022
  • For two-finger scrolling activity this gives a boost from 40 Hz to 135 Hz on average which
    8 KB (1,111 words) - 15:28, 7 August 2022
  • ...information on this page corresponds to the RTX 3070 and RTX 3080 QHD 165 Hz display versions, but should apply to other versions.
    4 KB (593 words) - 18:24, 11 August 2022
  • ...e-C to DisplayPort 1.2 adapter] (tested with 1080p and 4K, both work at 60 Hz) ...0-abnc/pc-accessories Dell Type-C to VGA adapter] (tested with 1080p at 60 Hz)
    15 KB (2,236 words) - 09:22, 11 August 2022
  • Stream #0:1(und): Audio: aac, 44100 Hz, stereo, fltp (default) Stream #0.1: Audio: ac3, 48000 Hz, stereo, s16, 384 kb/s
    22 KB (3,349 words) - 12:10, 4 August 2022
  • <code># 3440x1440 59.97 Hz (CVT) hsync: 88.82 kHz; pclk: 319.75 MHz # 1280x1024 59.89 Hz (CVT 1.31M4) hsync: 63.67 kHz; pclk: 109.00 MHz
    18 KB (2,672 words) - 19:07, 25 July 2022
  • where the frequency is set in Hz, and should match the base frequency for the transmissions in your area. Yo tuning to 506000000 Hz
    12 KB (1,828 words) - 03:00, 23 June 2022
  • ...e caractère sera répété à une certaine fréquence (généralement exprimée en Hz) spécifiée par le ''taux typographique''. Ces valeurs peuvent être modif ...s valeurs par défaut respectives, soit un délai de 250 ms et un taux de 11 Hz :
    12 KB (1,877 words) - 10:58, 25 January 2022
  • # 1600x1200 @ 60.00 Hz (GTF) hsync: 74.52 kHz; pclk: 160.96 MHz
    15 KB (919 words) - 09:56, 18 July 2022
  • To create a virtual screen of resolution HxW and refersh rate or X Hz one needs to create a "modeline", i.e. using the gtf utility # 1280x800 @ 120.00 Hz (GTF) hsync: 102.96 kHz; pclk: 181.21 MHz
    17 KB (2,821 words) - 10:40, 4 March 2022
  • ...e caractère sera répété à une certaine fréquence (généralement exprimée en Hz) spécifiée par le ''taux typographique''. Notez que ces paramètres sont ...ur définir un délai typographique de 200 ms et un taux typographique de 30 Hz, utilisez la commande suivante (utilisez [[Xinit (Français)#xinitrc|xinitr
    21 KB (3,302 words) - 18:59, 22 February 2022
  • * Increasing the highest requested RTC interrupt frequency (default is 64 Hz) by [[systemd FAQ#How can I make a script start during the boot process?|ru ...devices is '''48000 Hz'''. Others common rates include 44100 Hz and 96000 Hz.
    28 KB (4,449 words) - 19:27, 15 August 2022
  • ...the character will be repeated with a certain frequency (usually given in Hz) specified by the ''typematic rate''. These values can be changed using the
    10 KB (1,568 words) - 03:20, 10 July 2022
  • ...} several times, for instance, to force {{ic|DVI}} to ''1024x768'' at ''85 Hz'' and {{ic|TV-out}} off:
    12 KB (1,868 words) - 12:19, 25 June 2022
  • ...n, el carácter se repetirá con una cierta frecuencia (dada generalmente en Hz) especificada por la ''velocidad tipográfica''. Estos valores se pueden ca
    11 KB (1,835 words) - 16:05, 25 June 2022

View (previous 20 | next 20) (20 | 50 | 100 | 250 | 500)