Search results

  • ...ous les fichiers musicaux issus de CDs (44100 Hz ; les DVDs étant en 48000 Hz). === Passer la fréquence d'échantillonnage par défaut en 44100 Hz ===
    10 KB (1,411 words) - 06:55, 26 January 2022
  • Display supports 1440x900 @ 60 Hz. HDMI output not tested.
    2 KB (226 words) - 11:49, 31 March 2021
  • Display supports 1440x900 @ 60 Hz. HDMI output not tested.
    2 KB (222 words) - 23:04, 28 May 2021
  • '''按键延时'''是只长按一个按键多少时间才会开始重复这个按键。开始重复过程后,字符会以一定频率出现(Hz),也就是'''重复频率'''. 终端中,这些值可以通过 ''kbdrate
    4 KB (261 words) - 11:44, 6 July 2021
  • Ideal refresh rate, in Hz: 60 min VSync, Hz: 50
    27 KB (1,802 words) - 07:17, 22 January 2022
  • ...} several times, for instance, to force {{ic|DVI}} to ''1024x768'' at ''85 Hz'' and {{ic|TV-out}} off: 可以使用多个 "video" 设置不同输出的分辨率,例如要强制 DVI 使用 1024x768 85 Hz ,同时禁用 TV-out :
    11 KB (821 words) - 14:27, 13 October 2021
  • The polling rate of a device is measured in Hertz (Hz) and is determined by the polling interval. The polling interval is measure ! Hz
    9 KB (1,385 words) - 13:33, 25 January 2022
  • === No window opens: Desktop is 0 x 0 @ 0 Hz ===
    8 KB (1,258 words) - 08:25, 18 January 2022
  • Stream #0:1(und): Audio: aac, 44100 Hz, stereo, fltp (default) Stream #0.1: Audio: ac3, 48000 Hz, stereo, s16, 384 kb/s
    16 KB (2,316 words) - 14:40, 29 August 2021
  • # valid suffixes: Hz, kHz (default), MHz, GHz, THz
    4 KB (219 words) - 16:56, 22 December 2021
  • # 1280x1024 59.89 Hz (CVT 1.31M4) hsync: 63.67 kHz; pclk: 109.00 MHz # 1024x600 59.85 Hz (CVT) hsync: 37.35 kHz; pclk: 49.00 MHz
    16 KB (1,222 words) - 19:11, 6 July 2021
  • ...information on this page corresponds to the RTX 3070 and RTX 3080 QHD 165 Hz display versions, but should apply to other versions.
    4 KB (593 words) - 21:33, 17 December 2021
  • Stream #0:1(und): Audio: aac, 44100 Hz, stereo, fltp (default) Stream #0.1: Audio: ac3, 48000 Hz, stereo, s16, 384 kb/s
    21 KB (3,236 words) - 17:25, 27 November 2021
  • where the frequency is set in Hz, and should match the base frequency for the transmissions in your area. Yo tuning to 506000000 Hz
    10 KB (1,668 words) - 08:58, 28 December 2021
  • ...e-C to DisplayPort 1.2 adapter] (tested with 1080p and 4K, both work at 60 Hz) ...0-abnc/pc-accessories Dell Type-C to VGA adapter] (tested with 1080p at 60 Hz)
    18 KB (2,816 words) - 14:32, 21 January 2022
  • For two-finger scrolling activity this gives a boost from 40 Hz to 135 Hz on average which
    10 KB (1,457 words) - 23:07, 19 July 2021
  • <code># 3440x1440 59.97 Hz (CVT) hsync: 88.82 kHz; pclk: 319.75 MHz # 1280x1024 59.89 Hz (CVT 1.31M4) hsync: 63.67 kHz; pclk: 109.00 MHz
    20 KB (2,844 words) - 09:25, 23 January 2022
  • ...e caractère sera répété à une certaine fréquence (généralement exprimée en Hz) spécifiée par le ''taux typographique''. Ces valeurs peuvent être modif ...s valeurs par défaut respectives, soit un délai de 250 ms et un taux de 11 Hz :
    12 KB (1,877 words) - 10:58, 25 January 2022
  • Ideal refresh rate, in Hz: 60 min VSync, Hz: 50
    27 KB (4,085 words) - 07:17, 22 January 2022
  • To create a virtual screen of resolution HxW and refersh rate or X Hz one needs to create a "modeline", i.e. using the gtf utility # 1280x800 @ 120.00 Hz (GTF) hsync: 102.96 kHz; pclk: 181.21 MHz
    17 KB (2,819 words) - 08:31, 12 October 2021

View (previous 20 | next 20) (20 | 50 | 100 | 250 | 500)